Меню
Учебник
Партнёры
Вход
Виа ГРА клипы
MediaInfo
General
Format : AVI
Format/Info : Audio Video Interleave
File size : 700 MiB
Duration : 44mn 38s
Overall bit rate : 2 192 Kbps
Movie name : Виагра - клипы
Director : http://pc82/
Writing application : VirtualDubMod 1.5.10.1 (build 2389/release)VirtualDubMod build 2389/release
Copyright : Sony Music (c) 2003
Comment : Виагра - клипы / Благодарности: NickYan за DVD / Зарипано: http://pc82/ (с) 2004

Video
ID : 0
Format : MPEG-4 Visual
Format profile : Advanced Simple@L5
Format settings, BVOP : 2
Format settings, QPel : No
Format settings, GMC : No warppoints
Format settings, Matrix : Default (H.263)
Muxing mode : Packed bitstream
Codec ID : DX50
Codec ID/Hint : DivX 5
Duration : 44mn 38s
Bit rate : 1 991 Kbps
Width : 576 pixels
Height : 432 pixels
Display aspect ratio : 4:3
Frame rate : 25.000 fps
Color space : YUV
Chroma subsampling : 4:2:0
Bit depth : 8 bits
Scan type : Progressive
Compression mode : Lossy
Bits/(Pixel*Frame) : 0.320
Stream size : 636 MiB (91%)
Writing library : XviD 1.0.0 RC4 (Hola) (UTC 2004-04-05)

Audio
ID : 1
Format : MPEG Audio
Format version : Version 1
Format profile : Layer 3
Mode : Joint stereo
Mode extension : MS Stereo
Codec ID : 55
Codec ID/Hint : MP3
Duration : 44mn 28s
Bit rate mode : Constant
Bit rate : 192 Kbps
Channel(s) : 2 channels
Sampling rate : 48.0 KHz
Compression mode : Lossy
Stream size : 61.1 MiB (9%)
Alignment : Aligned on interleaves
Interleave, duration : 40 ms (1.00 video frame)
Interleave, preload duration : 504 ms

Скачать 699,97 МБ
Информация
Посетители, находящиеся в группе Гости, не могут оставлять комментарии к данной публикации.